Источники чистопородных карпатских пчел

Источники чистопородных карпатских пчел

Самой важной задачей мировой пчеловодной общественности, да и не только, есть выделение, усовершенствование, сохранение и рациональное использование всего разнообразия медоносных пчел нашей планеты, как основных опылителителей многих культур, обеспечивающих продовольствием многомиллиардное население Земли. В этом аспекте более 40 лет ведутся работы на Украине в Закарпатье с местной пчелой. Ее отселектированные формы быстро получили широкую известность, как карпатская. В данное время в ее структур входят четыре типа, являющиеся признанным селекционным продуктом и с выгодой массово используется.

 

{spoiler title=Качество видеофайла opened=0}

General

Complete name                  :

Format                         : MPEG-PS

File size                      : 1 024 MiB

Duration                       : 35mn 46s

Overall bit rate mode          : Variable

Overall bit rate               : 4 001 Kbps

 

Video

ID                             : 224 (0xE0)

Format                         : MPEG Video

Format version                 : Version 2

Format profile                 : Main@Main

Format settings, BVOP          : No

Format settings, Matrix        : Custom

Format settings, GOP           : M=3, N=12

Duration                       : 35mn 46s

Bit rate mode                  : Variable

Bit rate                       : 3 665 Kbps

Maximum bit rate               : 8 500 Kbps

Width                          : 720 pixels

Height                         : 576 pixels

Display aspect ratio           : 4:3

Frame rate                     : 25.000 fps

Standard                       : PAL

Color space                    : YUV

Chroma subsampling             : 4:2:0

Bit depth                      : 8 bits

Scan type                      : Interlaced

Scan order                     : Top Field First

Compression mode               : Lossy

Bits/(Pixel*Frame)             : 0.354

Time code of first frame       : 00:00:00:00

Time code source               : Group of pictures header

Stream size                    : 938 MiB (92%)

Color primaries                : BT.601 PAL

Transfer characteristics       : BT.470 System B, BT.470 System G

Matrix coefficients            : BT.601

 

Audio

ID                             : 189 (0xBD)-128 (0x80)

Format                         : AC-3

Format/Info                    : Audio Coding 3

Mode extension                 : CM (complete main)

Format settings, Endianness    : Big

Muxing mode                    : DVD-Video

Duration                       : 35mn 46s

Bit rate mode                  : Constant

Bit rate                       : 256 Kbps

Channel(s)                     : 2 channels

Channel positions              : Front: L R

Sampling rate                  : 48.0 KHz

Bit depth                      : 16 bits

Compression mode               : Lossy

Stream size                    : 65.5 MiB (6%)

 

Menu

 

{/spoiler}

{spoiler title=Скриншоты opened=0} {/spoiler}

Ссылка для скачивания: Скачать