Ротационное разведение пчел

Ротационное разведение пчел

В фильме рассказывается о выведении пчелиных маток, фильм германский(IWF), но с русским переводом.

 

Качество видеофайла

General

Complete name                  : VTS_01_1.VOB

Format                         : MPEG-PS

File size                      : 1 024 MiB

Duration                       : 18mn 38s

Overall bit rate               : 7 677 Kbps

 

Video

ID                             : 224 (0xE0)

Format                         : MPEG Video

Format version                 : Version 2

Format profile                 : Main@Main

Format settings, BVOP          : No

Format settings, Matrix        : Custom

Format settings, GOP           : M=3, N=15

Duration                       : 18mn 38s

Bit rate                       : 6 000 Kbps

Width                          : 720 pixels

Height                         : 576 pixels

Display aspect ratio           : 4:3

Frame rate                     : 25.000 fps

Standard                       : PAL

Color space                    : YUV

Chroma subsampling             : 4:2:0

Bit depth                      : 8 bits

Scan type                      : Interlaced

Scan order                     : Bottom Field First

Compression mode               : Lossy

Bits/(Pixel*Frame)             : 0.579

Time code of first frame       : 00:00:00:00

Time code source               : Group of pictures header

Stream size                    : 799 MiB (78%)

 

Audio

ID                             : 189 (0xBD)-160 (0xA0)

Format                         : PCM

Format settings, Endianness    : Big

Format settings, Sign          : Signed

Muxing mode                    : DVD-Video

Duration                       : 18mn 38s

Bit rate mode                  : Constant

Bit rate                       : 1 536 Kbps

Channel(s)                     : 2 channels

Sampling rate                  : 48.0 KHz

Bit depth                      : 16 bits

Stream size                    : 205 MiB (20%)

 

Menu

 

Скриншоты

 

Ссылка для скачивания:Скачать

Расширения для Joomla