Люди и пчелы (1 и 2 части)

Люди и пчелы (1 и 2 части)

Киновидеостудия "Цветной бульвар". Фильм задумовался, как рассказ о жизни пчел, а получился рассказ о людях. И некоторые возможности для всех нас. Возможности многое понять и многое изменить в нашей жизни с помощью этих маленьких странных существ.

 

Качество видеофайла

Видео: 656x496 (1.32:1), 25 fps, XviD build 47 ~3586 kbps avg, 0.44 bit/pixel
Аудио: 48 kHz, MPEG Layer 3, 2 ch, ~103.40 kbps avg

General

Complete name                  : Люди и пчелы-1.avi

Format                         : AVI

Format/Info                    : Audio Video Interleave

File size                      : 700 MiB

Duration                       : 26mn 26s

Overall bit rate mode          : Variable

Overall bit rate               : 3 702 Kbps

Writing application            : VirtualDubMod 1.5.4.1 (build 2178/release)

Writing library                : VirtualDubMod build 2178/release

 

Video

ID                             : 0

Format                         : MPEG-4 Visual

Format profile                 : Advanced Simple@L5

Format settings, BVOP          : Yes

Format settings, QPel          : No

Format settings, GMC           : No warppoints

Format settings, Matrix        : Custom

Codec ID                       : XVID

Codec ID/Hint                  : XviD

Duration                       : 26mn 26s

Bit rate                       : 3 587 Kbps

Width                          : 656 pixels

Height                         : 496 pixels

Display aspect ratio           : 4:3

Frame rate                     : 25.000 fps

Color space                    : YUV

Chroma subsampling             : 4:2:0

Bit depth                      : 8 bits

Scan type                      : Progressive

Compression mode               : Lossy

Bits/(Pixel*Frame)             : 0.441

Stream size                    : 678 MiB (97%)

Writing library                : XviD 1.2.0.dev47 (UTC 2006-11-01)

 

Audio

ID                             : 1

Format                         : MPEG Audio

Format version                 : Version 1

Format profile                 : Layer 3

Mode                           : Joint stereo

Mode extension                 : MS Stereo

Codec ID                       : 55

Codec ID/Hint                  : MP3

Duration                       : 26mn 7s

Bit rate mode                  : Variable

Bit rate                       : 103 Kbps

Nominal bit rate               : 128 Kbps

Channel(s)                     : 2 channels

Sampling rate                  : 48.0 KHz

Compression mode               : Lossy

Stream size                    : 19.3 MiB (3%)

Alignment                      : Aligned on interleaves

Interleave, duration           : 24 ms (0.61 video frame)

Interleave, preload duration   : 492 ms

Writing library                : LAME3.97

Encoding settings              : -m j -V 4 -q 2 -lowpass 17 --abr 128

 

Скриншоты

 

Ссылка для скачивания:Скачать

Расширения для Joomla