Пчеловодство

Пчеловодство

Подборка фильмов по пчеловодству: 1.В мире медоносных пчел 2.Гнездо пчел 3.Заготовка кормовых запасов на зиму 4.Использование роевых маточников 5.Искуссвенный вывод маток 6.Откачка меда 7.Размножение и развитие пчел 8.Сбор меда

 

Качество видеофайла

General

Complete name                  : Гнездо пчёл.avi

Format                         : AVI

Format/Info                    : Audio Video Interleave

File size                      : 118 MiB

Duration                       : 16mn 20s

Overall bit rate mode          : Variable

Overall bit rate               : 1 008 Kbps

 

Video

ID                             : 0

Format                         : MPEG-4 Visual

Format settings, BVOP          : Yes

Format settings, QPel          : No

Format settings, GMC           : No warppoints

Format settings, Matrix        : Default (H.263)

Codec ID                       : DX50

Codec ID/Hint                  : DivX 5

Duration                       : 16mn 20s

Bit rate                       : 893 Kbps

Width                          : 704 pixels

Height                         : 512 pixels

Display aspect ratio           : 1.375

Frame rate                     : 25.000 fps

Color space                    : YUV

Chroma subsampling             : 4:2:0

Bit depth                      : 8 bits

Scan type                      : Progressive

Compression mode               : Lossy

Bits/(Pixel*Frame)             : 0.099

Stream size                    : 104 MiB (89%)

Title                          : Video

Writing library                : DivX 5.2.1 Alpha (UTC 2004-09-08)

 

Audio

ID                             : 1

Format                         : MPEG Audio

Format version                 : Version 1

Format profile                 : Layer 3

Mode                           : Joint stereo

Mode extension                 : MS Stereo

Codec ID                       : 55

Codec ID/Hint                  : MP3

Duration                       : 16mn 20s

Bit rate mode                  : Variable

Bit rate                       : 96.0 Kbps

Channel(s)                     : 2 channels

Sampling rate                  : 44.1 KHz

Compression mode               : Lossy

Stream size                    : 12.0 MiB (10%)

Alignment                      : Aligned on interleaves

Interleave, duration           : 26 ms (0.65 video frame)

Interleave, preload duration   : 473 ms

Title                          : Audio

 

Скриншоты

 

Ссылка для скачивания:Скачать

 

Расширения для Joomla