Кашковский В.Г. - Основы любительского пчеловодства

Кашковский В.Г. - Основы любительского пчеловодства

Лекции и курсы Владимира Георгиевича Кашковского закончились 27.03.2011 (3 лекции и 7 курсов). Обязательно нужно просмотреть как профи с 30 летнем стажем и 200 пчелосемьями на 4х точкАх, так и любителю с 2 ульями. (Как правильно пчеловодить, кормить, лечить пчёл и очень подробно, доходчиво и по доброму всё разжёвано в мельчайших подробностях). Забудьте про Институт Пчеловодства и его зачастую ошибочные "инструкции" - следуйте рекомендациям профессора Кашковского и будете всегда с пчёлами и зальётесь мёдом. Проверено. На собственной пасеке в т.ч. здесь только курсы, лекции сюда не входят. Владимир Георгиевич просмотрел все диски и дал "добро" для бесплатного распространения. Продолжительность курсов=3ч37м +3ч52м +3ч47м +3ч44м +3ч47м +3ч20м +2ч21м +2ч18м.

 

Качество видеофайла

General

Complete name                  :Курсы1_agk.avi

Format                         : AVI

Format/Info                    : Audio Video Interleave

File size                      : 701 MiB

Duration                       : 3h 37mn

Overall bit rate               : 451 Kbps

Writing application            : VirtualDubMod 1.5.4.1 (build 2178/release)

Writing library                : VirtualDubMod build 2178/release

 

Video

ID                             : 0

Format                         : MPEG-4 Visual

Format profile                 : Advanced Simple@L5

Format settings, BVOP          : Yes

Format settings, QPel          : No

Format settings, GMC           : No warppoints

Format settings, Matrix        : Custom

Codec ID                       : XVID

Codec ID/Hint                  : XviD

Duration                       : 3h 37mn

Bit rate                       : 188 Kbps

Width                          : 416 pixels

Height                         : 240 pixels

Display aspect ratio           : 1.733

Frame rate                     : 25.000 fps

Color space                    : YUV

Chroma subsampling             : 4:2:0

Bit depth                      : 8 bits

Scan type                      : Progressive

Compression mode               : Lossy

Bits/(Pixel*Frame)             : 0.075

Stream size                    : 292 MiB (42%)

Writing library                : XviD 1.2.1 (UTC 2008-12-04)

 

Audio

ID                             : 1

Format                         : AC-3

Format/Info                    : Audio Coding 3

Mode extension                 : CM (complete main)

Format settings, Endianness    : Big

Codec ID                       : 2000

Duration                       : 3h 37mn

Bit rate mode                  : Constant

Bit rate                       : 256 Kbps

Channel(s)                     : 2 channels

Channel positions              : Front: L R

Sampling rate                  : 48.0 KHz

Bit depth                      : 16 bits

Compression mode               : Lossy

Stream size                    : 398 MiB (57%)

Alignment                      : Split accross interleaves

Interleave, duration           : 96 ms (2.40 video frames)

Interleave, preload duration   : 96 ms

 

 

Скриншоты

 

Ссылка для скачивания:Скачать

Расширения для Joomla