Разведение пчел

Разведение пчел

Фильм состоит из трех частей: 1.Вывод пчелиных маток; 2.Роение и формирование пакетов пчел (Демонстрация ульев, старых и современных. Сбор роя, наблюдение за развитем семьи и формирование пакетов пчел); 3.Инструментальное осеменение пчелиных маток.(Этот фильм затрагивет один из аспектов в разведении пчел - инструментальное осеменение. Даже если каждому пчеловоду не удастся осуществить его, то без сомнения, будет интересно познакомиться с этим методом. Зрителя ожидает совершенно неожиданная встреча с миром пчел, где искусство и техника соединяются вместе под ловкими пальцами оператора).

Качество видеофайла

General

Format                         : AVI

Format/Info                    : Audio Video Interleave

File size                      : 700 MiB

Duration                       : 1h 24mn

Overall bit rate mode          : Variable

Overall bit rate               : 1 153 Kbps

Writing application            : VirtualDubMod 1.5.4.1 (build 2178/release)

Writing library                : VirtualDubMod build 2178/release

 

Video

ID                             : 0

Format                         : MPEG-4 Visual

Format settings, BVOP          : Yes

Format settings, QPel          : No

Format settings, GMC           : No warppoints

Format settings, Matrix        : Default (H.263)

Codec ID                       : DX50

Codec ID/Hint                  : DivX 5

Duration                       : 1h 24mn

Bit rate                       : 1 034 Kbps

Width                          : 416 pixels

Height                         : 320 pixels

Display aspect ratio           : 4:3

Frame rate                     : 25.000 fps

Color space                    : YUV

Chroma subsampling             : 4:2:0

Bit depth                      : 8 bits

Scan type                      : Progressive

Compression mode               : Lossy

Bits/(Pixel*Frame)             : 0.311

Stream size                    : 628 MiB (90%)

Writing library                : DivX 6.0.3 Fusion (ThermonuclearFusion) (UTC 2005-10-18)

 

Audio

ID                             : 1

Format                         : MPEG Audio

Format version                 : Version 1

Format profile                 : Layer 3

Mode                           : Joint stereo

Mode extension                 : MS Stereo

Codec ID                       : 55

Codec ID/Hint                  : MP3

Duration                       : 1h 24mn

Bit rate mode                  : Variable

Bit rate                       : 106 Kbps

Channel(s)                     : 2 channels

Sampling rate                  : 48.0 KHz

Compression mode               : Lossy

Stream size                    : 64.6 MiB (9%)

Alignment                      : Aligned on interleaves

Interleave, duration           : 24 ms (0.60 video frame)

Interleave, preload duration   : 501 ms

Скриншоты

 

Ссылка для скачивания:Скачать

Расширения для Joomla