Улей "Удав" - устройство и технологии пчеловождения.

Улей "Удав" - устройство и технологии пчеловождения.

Улей "Удав" - это лёгкий, компактный, удобный в обслуживании, с простой малотрудоёмкой технологией пчеловождения, улей, который бы позволял пчёлам комфортно чувствовать себя в нём, отлично развиваться и давать пчёлопродукции, по крайней мере, не меньше, чем в общепринятых стандартных ульях. В фильме расскажут об утройстве улья и сможете увидеть плюсы этого улья на одной из пасек.

Качество видеофайла

General

Format                         : AVI

Format/Info                    : Audio Video Interleave

File size                      : 680 MiB

Duration                       : 39mn 3s

Overall bit rate mode          : Variable

Overall bit rate               : 2 434 Kbps

Writing application            : VirtualDubMod 1.5.10.1 (build 2366/release)

Writing library                : VirtualDubMod build 2366/release

 

Video

ID                             : 0

Format                         : MPEG-4 Visual

Format settings, BVOP          : Yes

Format settings, QPel          : No

Format settings, GMC           : No warppoints

Format settings, Matrix        : Default (H.263)

Codec ID                       : DX50

Codec ID/Hint                  : DivX 5

Duration                       : 39mn 3s

Bit rate                       : 2 300 Kbps

Width                          : 480 pixels

Height                         : 352 pixels

Display aspect ratio           : 4:3

Frame rate                     : 25.000 fps

Color space                    : YUV

Chroma subsampling             : 4:2:0

Bit depth                      : 8 bits

Scan type                      : Progressive

Compression mode               : Lossy

Bits/(Pixel*Frame)             : 0.545

Stream size                    : 643 MiB (94%)

Writing library                : DivX 6.8.5 (UTC 2009-08-20)

 

Audio

ID                             : 1

Format                         : MPEG Audio

Format version                 : Version 1

Format profile                 : Layer 3

Mode                           : Joint stereo

Mode extension                 : MS Stereo

Codec ID                       : 55

Codec ID/Hint                  : MP3

Duration                       : 39mn 3s

Bit rate mode                  : Variable

Bit rate                       : 121 Kbps

Nominal bit rate               : 128 Kbps

Channel(s)                     : 2 channels

Sampling rate                  : 48.0 KHz

Compression mode               : Lossy

Stream size                    : 33.9 MiB (5%)

Alignment                      : Aligned on interleaves

Interleave, duration           : 24 ms (0.60 video frame)

Interleave, preload duration   : 415 ms

Writing library                : LAME3.90.

Encoding settings              : -m j -V 0 -q 5 -lowpass 15.3 --abr 128

 

Скриншоты

 

Ссылка для скачивания:СКАЧАТЬ

Расширения для Joomla