Новые технологии в пчеловодстве

Новые технологии в пчеловодстве

Новые технологии в пчеловодстве. (Научно - практическая конференция Санкт - Петербург. 2008.)

Качество видеофайла

General

Format                         : AVI

Format/Info                    : Audio Video Interleave

File size                      : 1.34 GiB

Duration                       : 2h 48mn

Overall bit rate               : 1 141 Kbps

Writing application            : Lavf52.0.0

Writing library                : Boilsoft AVI tool build 1/release

 

Video

ID                             : 0

Format                         : MPEG-4 Visual

Format profile                 : Advanced Simple@L1

Format settings, BVOP          : Yes

Format settings, QPel          : No

Format settings, GMC           : No warppoints

Format settings, Matrix        : Default (H.263)

Codec ID                       : DX50

Codec ID/Hint                  : DivX 5

Duration                       : 2h 48mn

Bit rate                       : 1 000 Kbps

Width                          : 640 pixels

Height                         : 480 pixels

Display aspect ratio           : 4:3

Frame rate                     : 25.000 fps

Color space                    : YUV

Chroma subsampling             : 4:2:0

Bit depth                      : 8 bits

Scan type                      : Progressive

Compression mode               : Lossy

Bits/(Pixel*Frame)             : 0.130

Stream size                    : 1.17 GiB (88%)

Writing library                : Lavc52.48.0

 

Audio

ID                             : 1

Format                         : MPEG Audio

Format version                 : Version 1

Format profile                 : Layer 3

Mode                           : Joint stereo

Mode extension                 : MS Stereo

Codec ID                       : 55

Codec ID/Hint                  : MP3

Duration                       : 2h 48mn

Bit rate mode                  : Constant

Bit rate                       : 128 Kbps

Channel(s)                     : 2 channels

Sampling rate                  : 48.0 KHz

Compression mode               : Lossy

Stream size                    : 154 MiB (11%)

Alignment                      : Aligned on interleaves

Interleave, duration           : 24 ms (0.60 video frame)

Interleave, preload duration   : 504 ms

Writing library                : LAME3.96.1

Скриншоты

 

Ссылка для скачивания:СКАЧАТЬ

Расширения для Joomla