Пчеловодство в Башкирии

Пчеловодство в Башкирии

Есть в России места, которые можно назвать природным калейдоскопом, где широко и привольно раскинулись цветущие луга и окружающие огромные липовые леса, где воздух наполнен ароматом свежего ветра, густых пряных трав и медоносных цветов, где дышится так легко и свободно, что порой кажется можно взлететь и парить словно птица. Край этот республика Башкортостан. Одним из древнейших занятием этих людей населявших этот край было пчеловодство. Сами себя они называли башкур. Что в переводе означает главный пчеловод, хозяин пчел. В записках арабского путешественника Ахмеда Ибн Фадлана датируемых 992 годом упоминается что пищей башкирам служит мед, зверь и рыба.

 

Качество видеофайла

Format                         : AVI

Format/Info                    : Audio Video Interleave

File size                      : 535 MiB

Duration                       : 39mn 22s

Overall bit rate               : 1 900 Kbps

Writing application            : VirtualDubModRus 1.5.10.2 (build 2542/release)

Writing library                : VirtualDubMod build 2542/release

Video

ID                             : 0

Format                         : MPEG-4 Visual

Format profile                 : Advanced Simple@L5

Format settings, BVOP          : Yes

Format settings, QPel          : No

Format settings, GMC           : No warppoints

Format settings, Matrix        : Default (MPEG)

Codec ID                       : XVID

Codec ID/Hint                  : XviD

Duration                       : 39mn 22s

Bit rate                       : 1 794 Kbps

Width                          : 720 pixels

Height                         : 544 pixels

Display aspect ratio           : 1.222

Original display aspect ratio  : 4:3

Frame rate                     : 25.000 fps

Color space                    : YUV

Chroma subsampling             : 4:2:0

Bit depth                      : 8 bits

Scan type                      : Progressive

Compression mode               : Lossy

Bits/(Pixel*Frame)             : 0.183

Stream size                    : 505 MiB (94%)

Writing library                : XviD 61

Audio

ID                             : 1

Format                         : MPEG Audio

Format version                 : Version 1

Format profile                 : Layer 3

Codec ID                       : 55

Codec ID/Hint                  : MP3

Duration                       : 39mn 22s

Bit rate mode                  : Constant

Bit rate                       : 96.0 Kbps

Channel(s)                     : 1 channel

Sampling rate                  : 48.0 KHz

Compression mode               : Lossy

Stream size                    : 27.0 MiB (5%)

Alignment                      : Split accross interleaves

Interleave, duration           : 40 ms (1.00 video frame)

Interleave, preload duration   : 500 ms

Скриншоты

 

Ссылка для скачивания:Скачать

Расширения для Joomla