Cовременные методы содержания и разведения пчел. Центрнаучфильм

Cовременные методы содержания и разведения пчел. Центрнаучфильм

Данный фильм оцифрован с киноленты Центрнаучфильм снятый в 1969 году. Фильм снимался на пасеках научно-исследовательского института пчеловодства МСХ РСФСР. В данном видеовыпуске затронуты такие темы как: современные методы содержания  и разведения пчел (Для 1969 года эти методы были современны), размножение пчелиных семей, вывод маток, перевозка пчел на медосбор, механизация трудоемких процессов на пасеках, зимовка пчел. Уникальный фильм, создан настоящими мастерами научно-популярного и документального кинематографа.

 

Качество видеофайла

Format                         : MPEG-4

Format profile                 : Base Media / Version 2

Codec ID                       : mp42

File size                      : 124 MiB

Duration                       : 37mn 22s

Overall bit rate mode          : Variable

Overall bit rate               : 462 Kbps

Encoded date                   : UTC 2013-04-01 14:43:14

Tagged date                    : UTC 2013-04-01 14:43:14

gsst                           : 0

gstd                           : 2243070

gssd                           : BADC23A82HH1397159085380331

gshh                           : r2---sn-n8v7lne7.googlevideo.com

 

Video

ID                             : 1

Format                         : AVC

Format/Info                    : Advanced Video Codec

Format profile                 : Baseline@L2.1

Format settings, CABAC         : No

Format settings, ReFrames      : 1 frame

Codec ID                       : avc1

Codec ID/Info                  : Advanced Video Coding

Duration                       : 37mn 22s

Bit rate                       : 364 Kbps

Maximum bit rate               : 1 513 Kbps

Width                          : 450 pixels

Height                         : 360 pixels

Display aspect ratio           : 5:4

Frame rate mode                : Constant

Frame rate                     : 25.000 fps

Color space                    : YUV

Chroma subsampling             : 4:2:0

Bit depth                      : 8 bits

Scan type                      : Progressive

Bits/(Pixel*Frame)             : 0.090

Stream size                    : 97.3 MiB (79%)

Tagged date                    : UTC 2013-04-01 14:43:46

 

Audio

ID                             : 2

Format                         : AAC

Format/Info                    : Advanced Audio Codec

Format profile                 : LC

Codec ID                       : 40

Duration                       : 37mn 22s

Bit rate mode                  : Variable

Bit rate                       : 96.0 Kbps

Maximum bit rate               : 103 Kbps

Channel(s)                     : 2 channels

Channel positions              : Front: L R

Sampling rate                  : 44.1 KHz

Compression mode               : Lossy

Stream size                    : 25.7 MiB (21%)

Title                          : IsoMedia File Produced by Google, 5-11-2011

Encoded date                   : UTC 2013-04-01 14:43:30

Tagged date                    : UTC 2013-04-01 14:43:46

 

Скриншоты

 

Ссылка для скачивания:Скачать

Расширения для Joomla