Медовый хуторок

Медовый хуторок

В данном видео больше рассказывается о музее Медовый хуторок (Пчелиный хуторок, Музей пчелы), который находится в Псковской области. Создатель музея и экскурсовод - Глазов Геннадий Васильевич. Язык у дяденьки подвешан, много рассказывает. Есть спорные моменты, но в кое-чем он, безусловно прав.

 

Качество видеофайла

Format                         : MPEG-PS

File size                      : 900 MiB

Duration                       : 16mn 1s

Overall bit rate mode          : Variable

Overall bit rate               : 7 855 Kbps

 

Video

ID                             : 224 (0xE0)

Format                         : MPEG Video

Format version                 : Version 2

Format profile                 : Main@Main

Format settings, BVOP          : Yes

Format settings, Matrix        : Custom

Format settings, GOP           : M=3, N=15

Duration                       : 16mn 1s

Bit rate mode                  : Variable

Bit rate                       : 7 475 Kbps

Maximum bit rate               : 8 000 Kbps

Width                          : 720 pixels

Height                         : 576 pixels

Display aspect ratio           : 4:3

Frame rate                     : 25.000 fps

Standard                       : PAL

Color space                    : YUV

Chroma subsampling             : 4:2:0

Bit depth                      : 8 bits

Scan type                      : Interlaced

Scan order                     : Top Field First

Compression mode               : Lossy

Bits/(Pixel*Frame)             : 0.721

Time code of first frame       : 00:16:01:18

Time code source               : Group of pictures header

Stream size                    : 857 MiB (95%)

Color primaries                : BT.601 NTSC

Transfer characteristics       : BT.601

Matrix coefficients            : BT.601

 

Audio

ID                             : 189 (0xBD)-128 (0x80)

Format                         : AC-3

Format/Info                    : Audio Coding 3

Mode extension                 : CM (complete main)

Format settings, Endianness    : Big

Muxing mode                    : DVD-Video

Duration                       : 16mn 1s

Bit rate mode                  : Constant

Bit rate                       : 224 Kbps

Channel(s)                     : 2 channels

Channel positions              : Front: L R

Sampling rate                  : 48.0 KHz

Bit depth                      : 16 bits

Compression mode               : Lossy

Delay relative to video        : -256ms

Stream size                    : 25.7 MiB (3%)

 

Скриншоты

 

Ссылка для скачивания:Скачать

Расширения для Joomla