Пчеловодство в Узбекистане

Пчеловодство в Узбекистане

Видеоматериал о поездке на пасеку Ш.Р.Суяркулова (Шерали). Производство: Алматинское областное общество пчеловодов любителей. Пчеловод делится наработанным опытом и знаниями.

 

Качество видеофайла

Format                         : MPEG-PS

File size                      : 1.04 GiB

Duration                       : 16mn 8s

Overall bit rate mode          : Variable

Overall bit rate               : 9 267 Kbps

 

Video

ID                             : 224 (0xE0)

Format                         : MPEG Video

Format version                 : Version 2

Format profile                 : Main@Main

Format settings, BVOP          : Yes

Format settings, Matrix        : Custom

Format settings, GOP           : M=3, N=12

Duration                       : 16mn 8s

Bit rate mode                  : Variable

Bit rate                       : 8 827 Kbps

Maximum bit rate               : 9 100 Kbps

Width                          : 720 pixels

Height                         : 576 pixels

Display aspect ratio           : 16:9

Frame rate                     : 25.000 fps

Standard                       : PAL

Color space                    : YUV

Chroma subsampling             : 4:2:0

Bit depth                      : 8 bits

Scan type                      : Interlaced

Scan order                     : Top Field First

Compression mode               : Lossy

Bits/(Pixel*Frame)             : 0.851

Time code of first frame       : 00:00:00:00

Time code source               : Group of pictures header

Stream size                    : 1 019 MiB (95%)

 

Audio

ID                             : 189 (0xBD)-128 (0x80)

Format                         : AC-3

Format/Info                    : Audio Coding 3

Mode extension                 : CM (complete main)

Format settings, Endianness    : Big

Muxing mode                    : DVD-Video

Duration                       : 16mn 8s

Bit rate mode                  : Constant

Bit rate                       : 256 Kbps

Channel(s)                     : 2 channels

Channel positions              : Front: L R

Sampling rate                  : 48.0 KHz

Bit depth                      : 16 bits

Compression mode               : Lossy

Delay relative to video        : -80ms

Stream size                    : 29.6 MiB (3%)

 

Скриншоты

 

Ссылка для скачивания:Скачать

Расширения для Joomla