Общий курс пчеловода любителя

Общий курс пчеловода любителя

Видеозаписи лекции по пчеловодству, которые проходили в Магнитогорске в 2009г. Видеоматериалы являются практическим руководством как для начинающих пчеловодов-любителей, так и для опытных пчеловодов. В ней содержатся основные сведения о пчеловодстве, обобщен богатый опыт пчеловодов. Это своеобразная азбука пчеловода . Для специалистов-пчеловодов и пчеловодов-любителей

 

Качество видеофайла

Format                         : AVI

Format/Info                    : Audio Video Interleave

File size                      : 910 MiB

Duration                       : 1h 28mn

Overall bit rate               : 1 438 Kbps

 

Video

ID                             : 0

Format                         : MPEG-4 Visual

Format settings, BVOP          : Yes

Format settings, QPel          : No

Format settings, GMC           : No warppoints

Format settings, Matrix        : Default (H.263)

Codec ID                       : DX50

Codec ID/Hint                  : DivX 5

Duration                       : 1h 28mn

Bit rate                       : 1 300 Kbps

Width                          : 720 pixels

Height                         : 526 pixels

Display aspect ratio           : 4:3

Frame rate                     : 25.000 fps

Color space                    : YUV

Chroma subsampling             : 4:2:0

Bit depth                      : 8 bits

Scan type                      : Progressive

Compression mode               : Lossy

Bits/(Pixel*Frame)             : 0.137

Stream size                    : 823 MiB (90%)

Title                          : Video

Writing library                : DivX 6.8.0 Converter 6.6

 

Audio

ID                             : 1

Format                         : MPEG Audio

Format version                 : Version 1

Format profile                 : Layer 3

Mode                           : Dual mono

Codec ID                       : 55

Codec ID/Hint                  : MP3

Duration                       : 1h 28mn

Bit rate mode                  : Constant

Bit rate                       : 128 Kbps

Channel(s)                     : 2 channels

Sampling rate                  : 48.0 KHz

Compression mode               : Lossy

Stream size                    : 81.0 MiB (9%)

Alignment                      : Split accross interleaves

Interleave, duration           : 40 ms (1.00 video frame)

Interleave, preload duration   : 500 ms

Title                          : Audio

 

Скриншоты

 

Содержание лекции:

Лекция №1 Введение Структура семьи пчёл Матка, рабочая пчела, трутень Анатомия пчелы Половое размножение Индивидуальное развитие.

Лекция №3 Активный период жизни пчел Летняя работа и медосбор Мобилизация использования взятка Пассивный период жизни пчел Клуб пчел, температурно-влажностный режим

Лекция№4 Кормовая база пчел Медоносная фауна Южного Урала Типы взятков Рассчет баланса медоносных угодий

Лекция№5 Выбор места размещения пасек Пасечные постройки и инвентарь Ульи, типы ульев Наващивание рамок Сотохранилище Павильоны и обменники

Лекция№6 Начало активного периода пчел Выставка семей, ревизия весной Устранение недостатков после зимовки Уход за пчёлами весной Выравнивание семей

Лекция№7 Содержание целостных семей пчел в ульях разных систем Содержание с матками помошницами, схема Метод двух корпусов

Лекция№8 Роение на медосборе, недостатки и качества Предупреждение и ликвидация роения Использование роев на медосборе Вывод маток

Лекция№9 Образование новых семей Отводни, пчелопакеты Способы подсадки маток Работа на медосборе Интенсивный метод медосбора

Лекция№10 Метод двух маточного содержания пчел Мини-пасека Подготовка пчел к зиме

 

Ссылка для скачивания:Скачать

Расширения для Joomla