Племенная работа на пасеке Гайдара В.А

Племенная работа на пасеке Гайдара В.А

Племенная работа на пасеке Гайдара В.А. Украина 2007 ОПНО.  В фильме рассказывается о племенной работе на пасеке Гайдара В.А. ведущего матковода, который занимается селекцией, известной пчеловодам карпатской породой пчёл, г. Мукачево.

 

Качество видеофайла

Format                         : MPEG-PS

File size                      : 1 024 MiB

Duration                       : 40mn 0s

Overall bit rate mode          : Variable

Overall bit rate               : 3 578 Kbps

Writing library                : Created with Nero

 

Video

ID                             : 224 (0xE0)

Format                         : MPEG Video

Format version                 : Version 2

Format profile                 : Main@Main

Format settings, BVOP          : No

Format settings, Matrix        : Default

Format settings, GOP           : M=3, N=15

Duration                       : 40mn 0s

Bit rate mode                  : Variable

Bit rate                       : 3 315 Kbps

Maximum bit rate               : 9 800 Kbps

Width                          : 720 pixels

Height                         : 576 pixels

Display aspect ratio           : 4:3

Frame rate                     : 25.000 fps

Standard                       : PAL

Color space                    : YUV

Chroma subsampling             : 4:2:0

Bit depth                      : 8 bits

Scan type                      : Interlaced

Scan order                     : Bottom Field First

Compression mode               : Lossy

Bits/(Pixel*Frame)             : 0.320

Time code of first frame       : 00:00:00:00

Time code source               : Group of pictures header

Stream size                    : 949 MiB (93%)

Source encoded stream size     : Ahead Nero

Writing library                : Ahead Nero

 

Audio

ID                             : 189 (0xBD)-128 (0x80)

Format                         : AC-3

Format/Info                    : Audio Coding 3

Mode extension                 : CM (complete main)

Format settings, Endianness    : Big

Muxing mode                    : DVD-Video

Duration                       : 40mn 0s

Bit rate mode                  : Constant

Bit rate                       : 192 Kbps

Channel(s)                     : 2 channels

Channel positions              : Front: L R

Sampling rate                  : 48.0 KHz

Bit depth                      : 16 bits

Compression mode               : Lossy

Delay relative to video        : -40ms

Stream size                    : 54.9 MiB (5%)

 

Menu

 

Скриншоты

 

Ссылка для скачивания:Скачать

Расширения для Joomla