Пчелиные истории. Центрнаучфильм 1987 год.

Пчелиные истории. Центрнаучфильм 1987 год.

Пчелиные истории. Центрнаучфильм подарит Вам редкую возможность увидеть уникальный фильм, созданный настоящими мастерами научно-популярного и документального кинематографа.

 

Качество видеофайла

Format                         : MPEG-4

Format profile                 : Base Media / Version 2

Codec ID                       : mp42

File size                      : 72.3 MiB

Duration                       : 17mn 10s

Overall bit rate mode          : Variable

Overall bit rate               : 588 Kbps

Encoded date                   : UTC 2013-04-02 05:11:51

Tagged date                    : UTC 2013-04-02 05:11:51

gsst                           : 0

gstd                           : 1030570

gssd                           : BADC23A6CMH1397158951011901

gshh                           : r12---sn-n8v7ln7y.googlevideo.com

 

Video

ID                             : 1

Format                         : AVC

Format/Info                    : Advanced Video Codec

Format profile                 : Baseline@L2.1

Format settings, CABAC         : No

Format settings, ReFrames      : 1 frame

Codec ID                       : avc1

Codec ID/Info                  : Advanced Video Coding

Duration                       : 17mn 10s

Bit rate                       : 490 Kbps

Maximum bit rate               : 1 745 Kbps

Width                          : 450 pixels

Height                         : 360 pixels

Display aspect ratio           : 5:4

Frame rate mode                : Constant

Frame rate                     : 25.000 fps

Color space                    : YUV

Chroma subsampling             : 4:2:0

Bit depth                      : 8 bits

Scan type                      : Progressive

Bits/(Pixel*Frame)             : 0.121

Stream size                    : 60.2 MiB (83%)

Tagged date                    : UTC 2013-04-02 05:12:04

 

Audio

ID                             : 2

Format                         : AAC

Format/Info                    : Advanced Audio Codec

Format profile                 : LC

Codec ID                       : 40

Duration                       : 17mn 10s

Bit rate mode                  : Variable

Bit rate                       : 96.0 Kbps

Maximum bit rate               : 101 Kbps

Channel(s)                     : 2 channels

Channel positions              : Front: L R

Sampling rate                  : 44.1 KHz

Compression mode               : Lossy

Stream size                    : 11.8 MiB (16%)

Title                          : IsoMedia File Produced by Google, 5-11-2011

Encoded date                   : UTC 2013-04-02 05:11:58

Tagged date                    : UTC 2013-04-02 05:12:04

 

Скриншоты

 

Ссылка для скачивания:Скачать

Расширения для Joomla