Пчеловод любитель. Псков

Пчеловод любитель. Псков

В видео фильме своими секретами пчеловодства делится псковский пчеловод. Его опыт, идеи давно оценили и взяли на вооружение многие пчеловоды-практики.

 

Качество видеофайла

Format                         : AVI

Format/Info                    : Audio Video Interleave

File size                      : 474 MiB

Duration                       : 1h 38mn

Overall bit rate               : 672 Kbps

 

Video

ID                             : 0

Format                         : MPEG-4 Visual

Format settings, BVOP          : Yes

Format settings, QPel          : No

Format settings, GMC           : No warppoints

Format settings, Matrix        : Default (H.263)

Codec ID                       : DX50

Codec ID/Hint                  : DivX 5

Duration                       : 1h 38mn

Bit rate                       : 601 Kbps

Width                          : 352 pixels

Height                         : 256 pixels

Display aspect ratio           : 1.375

Frame rate                     : 25.000 fps

Color space                    : YUV

Chroma subsampling             : 4:2:0

Bit depth                      : 8 bits

Scan type                      : Progressive

Compression mode               : Lossy

Bits/(Pixel*Frame)             : 0.267

Stream size                    : 422 MiB (89%)

Writing library                : DivX 5.0.5 Beta(Tahanea) (UTC 2003-01)

 

Audio

ID                             : 1

Format                         : MPEG Audio

Format version                 : Version 1

Format profile                 : Layer 3

Codec ID                       : 55

Codec ID/Hint                  : MP3

Duration                       : 1h 38mn

Source duration                : 1h 38mn

Bit rate mode                  : Constant

Bit rate                       : 64.0 Kbps

Channel(s)                     : 2 channels

Sampling rate                  : 44.1 KHz

Compression mode               : Lossy

Stream size                    : 45.0 MiB (9%)

Alignment                      : Split accross interleaves

Interleave, duration           : 40 ms (1.00 video frame)

Interleave, preload duration   : 500 ms

 

Скриншоты

 

Ссылка для скачивания:Скачать

Расширения для Joomla