Пчеловодство в Канаде

Пчеловодство в Канаде

Экскурсия по пасекам Канады. Показаны методы промышленного пчеловодства. Первые пчелы попали в Канаду около 250 лет тому назад, привезенные в соломенных сапетках. Для первых поселенцев мед был важным продуктом из за скупых поставок сахара из европы. Пчеловоды, которые в настоящее время в Канаде около 10 тыс имеют почти 600 тыс пчелиных семей. Получение маточного молочка, прополиса, пыльцы не влияет на общую картину пчеловодческого производства, основа является производство меда составившая в прошлом году почти тридцать три тысячи тонн.

 

Качество видеофайла

Format                         : AVI

Format/Info                    : Audio Video Interleave

File size                      : 700 MiB

Duration                       : 44mn 27s

Overall bit rate mode          : Variable

Overall bit rate               : 2 201 Kbps

Writing application            : VirtualDubMod 1.5.4.1 (build 2178/release)

Writing library                : VirtualDubMod build 2178/release

 

Video

ID                             : 0

Format                         : MPEG-4 Visual

Format settings, BVOP          : Yes

Format settings, QPel          : No

Format settings, GMC           : No warppoints

Format settings, Matrix        : Default (H.263)

Codec ID                       : DX50

Codec ID/Hint                  : DivX 5

Duration                       : 44mn 27s

Bit rate                       : 2 084 Kbps

Width                          : 480 pixels

Height                         : 304 pixels

Display aspect ratio           : 16:10

Frame rate                     : 25.000 fps

Color space                    : YUV

Chroma subsampling             : 4:2:0

Bit depth                      : 8 bits

Scan type                      : Progressive

Compression mode               : Lossy

Bits/(Pixel*Frame)             : 0.571

Stream size                    : 663 MiB (95%)

Writing library                : DivX 6.0.3 Fusion (ThermonuclearFusion) (UTC 2005-10-18)

 

Audio

ID                             : 1

Format                         : MPEG Audio

Format version                 : Version 1

Format profile                 : Layer 3

Mode                           : Joint stereo

Mode extension                 : MS Stereo

Codec ID                       : 55

Codec ID/Hint                  : MP3

Duration                       : 44mn 27s

Bit rate mode                  : Variable

Bit rate                       : 105 Kbps

Nominal bit rate               : 128 Kbps

Channel(s)                     : 2 channels

Sampling rate                  : 48.0 KHz

Compression mode               : Lossy

Stream size                    : 33.4 MiB (5%)

Alignment                      : Aligned on interleaves

Interleave, duration           : 24 ms (0.60 video frame)

Interleave, preload duration   : 175 ms

Writing library                : LAME3.97b

Encoding settings              : -m j -V 4 -q 2 -lowpass 17 --abr 128

Language                       : Russian

 

Скриншоты

 

Ссылка для скачивания:Скачать

Расширения для Joomla