Пчеловодство на промышленную основу.

Пчеловодство на промышленную основу.

Пчеловодство на промышленную основу. Центрнаучфильм 1975 год. Центрнаучфильм подарит Вам редкую возможность увидеть уникальный фильм, созданный настоящими мастерами научно-популярного и документального кинематографа.

 

Качество видеофайла

General

Format                         : MPEG-4

Format profile                 : Base Media / Version 2

Codec ID                       : mp42

File size                      : 62.5 MiB

Duration                       : 18mn 33s

Overall bit rate mode          : Variable

Overall bit rate               : 471 Kbps

Encoded date                   : UTC 2014-02-14 13:43:22

Tagged date                    : UTC 2014-02-14 13:43:22

gsst                           : 0

gstd                           : 1113628

gssd                           : B4A7D6E45HH1397158818736881

gshh                           : r5---sn-n8v7sn7e.googlevideo.com

 

Video

ID                             : 1

Format                         : AVC

Format/Info                    : Advanced Video Codec

Format profile                 : Baseline@L2.1

Format settings, CABAC         : No

Format settings, ReFrames      : 1 frame

Codec ID                       : avc1

Codec ID/Info                  : Advanced Video Coding

Duration                       : 18mn 33s

Bit rate                       : 372 Kbps

Maximum bit rate               : 1 448 Kbps

Width                          : 450 pixels

Height                         : 360 pixels

Display aspect ratio           : 5:4

Frame rate mode                : Constant

Frame rate                     : 25.000 fps

Color space                    : YUV

Chroma subsampling             : 4:2:0

Bit depth                      : 8 bits

Scan type                      : Progressive

Bits/(Pixel*Frame)             : 0.092

Stream size                    : 49.4 MiB (79%)

Tagged date                    : UTC 2014-02-14 13:43:33

 

Audio

ID                             : 2

Format                         : AAC

Format/Info                    : Advanced Audio Codec

Format profile                 : LC

Codec ID                       : 40

Duration                       : 18mn 33s

Bit rate mode                  : Variable

Bit rate                       : 96.0 Kbps

Maximum bit rate               : 102 Kbps

Channel(s)                     : 2 channels

Channel positions              : Front: L R

Sampling rate                  : 44.1 KHz

Compression mode               : Lossy

Stream size                    : 12.7 MiB (20%)

Title                          : IsoMedia File Produced by Google, 5-11-2011

Encoded date                   : UTC 2014-02-14 13:43:27

Tagged date                    : UTC 2014-02-14 13:43:33

 

Скриншоты

 

Ссылка для скачивания:Скачать

Расширения для Joomla