Секреты мастерства нижегородского пчеловода

Секреты мастерства нижегородского пчеловода

В видео фильме своими секретами пчеловодства делится нижегородский пчеловод, в прошлом ветеринарный врач, Панов Виталий Алексеевич. Его многолетний опыт, идеи давно оценили и взяли на вооружение многие пчеловоды-практики. Когда-то секреты пчеловодства ему передал отец, и сейчас, в свои 80 лет Виталий Алексеевич постоянно усовершенствует уникальные разработки, экспериментирует с шириной рамок: его ульи с узковысокими рамками способствуют хорошему развитию и лучшей зимовке пчелиных семей. Пчеловод считает, что успех зимовки зависит от обработки пчел от болезней весной, а не осенью.

 

Качество видеофайла

General

Format                         : MPEG-4

Format profile                 : Base Media / Version 2

Codec ID                       : mp42

File size                      : 300 MiB

Duration                       : 1h 10mn

Overall bit rate mode          : Variable

Overall bit rate               : 597 Kbps

Encoded date                   : UTC 2013-12-12 14:30:18

Tagged date                    : UTC 2013-12-12 14:30:18

gsst                           : 0

gstd                           : 4210821

gssd                           : B4A7D6E66HH1397158598830961

gshh                           : r6---sn-n8v7sn7l.googlevideo.com

 

Video

ID                             : 1

Format                         : AVC

Format/Info                    : Advanced Video Codec

Format profile                 : Baseline@L2.1

Format settings, CABAC         : No

Format settings, ReFrames      : 1 frame

Codec ID                       : avc1

Codec ID/Info                  : Advanced Video Coding

Duration                       : 1h 10mn

Bit rate                       : 499 Kbps

Maximum bit rate               : 2 213 Kbps

Width                          : 480 pixels

Height                         : 360 pixels

Display aspect ratio           : 4:3

Frame rate mode                : Constant

Frame rate                     : 25.000 fps

Color space                    : YUV

Chroma subsampling             : 4:2:0

Bit depth                      : 8 bits

Scan type                      : Progressive

Bits/(Pixel*Frame)             : 0.115

Stream size                    : 250 MiB (84%)

Tagged date                    : UTC 2013-12-12 14:31:33

 

Audio

ID                             : 2

Format                         : AAC

Format/Info                    : Advanced Audio Codec

Format profile                 : LC

Codec ID                       : 40

Duration                       : 1h 10mn

Bit rate mode                  : Variable

Bit rate                       : 96.0 Kbps

Maximum bit rate               : 103 Kbps

Channel(s)                     : 2 channels

Channel positions              : Front: L R

Sampling rate                  : 44.1 KHz

Compression mode               : Lossy

Stream size                    : 48.2 MiB (16%)

Title                          : IsoMedia File Produced by Google, 5-11-2011

Encoded date                   : UTC 2013-12-12 14:30:59

Tagged date                    : UTC 2013-12-12 14:31:33

Скриншоты

 

Ссылка для скачивания:Скачать

Расширения для Joomla