Русский мёд

Русский мёд

Этот фильм о секретах съедобного золота. Каждый год в Москве проходят медовые ярмарки сотни производителей со всего света продают пожалуй самый легендарный продукт на земле. Среди этих людей пчеловодов пожалуй нет никого для кого  мёд был бы просто бизнесом, кто на нем делает деньги и все. Обязательно для кого то из них это хобби или семейная традиция, но и для тех и для других мёд это прежде всего личная история. Поэтому вы никогда не сможете купить двух одинаковых банок мёда. Каждый бочонок с мёдом прежде чем попасть на ярмарку проходит через специальные лабораторные исследования.

 

Качество видеофайла

General

Format                         : AVI

Format/Info                    : Audio Video Interleave

File size                      : 248 MiB

Duration                       : 25mn 36s

Overall bit rate               : 1 352 Kbps

Writing application            : VirtualDubMod 1.5.10.1 (build 2366/release)

Writing library                : VirtualDubMod build 2366/release

 

Video

ID                             : 0

Format                         : MPEG-4 Visual

Format settings, BVOP          : Yes

Format settings, QPel          : No

Format settings, GMC           : No warppoints

Format settings, Matrix        : Default (H.263)

Codec ID                       : DX50

Codec ID/Hint                  : DivX 5

Duration                       : 25mn 36s

Bit rate                       : 1 215 Kbps

Width                          : 656 pixels

Height                         : 480 pixels

Display aspect ratio           : 4:3

Frame rate                     : 25.000 fps

Color space                    : YUV

Chroma subsampling             : 4:2:0

Bit depth                      : 8 bits

Scan type                      : Progressive

Compression mode               : Lossy

Bits/(Pixel*Frame)             : 0.154

Stream size                    : 222 MiB (90%)

Writing library                : DivX 6.8.5 (UTC 2009-08-20)

 

Audio

ID                             : 1

Format                         : MPEG Audio

Format version                 : Version 1

Format profile                 : Layer 3

Mode                           : Joint stereo

Mode extension                 : MS Stereo

Codec ID                       : 55

Codec ID/Hint                  : MP3

Duration                       : 25mn 36s

Bit rate mode                  : Constant

Bit rate                       : 128 Kbps

Channel(s)                     : 2 channels

Sampling rate                  : 48.0 KHz

Compression mode               : Lossy

Stream size                    : 23.4 MiB (9%)

Alignment                      : Aligned on interleaves

Interleave, duration           : 40 ms (1.00 video frame)

Interleave, preload duration   : 504 ms

 

Скриншоты

 

Ссылка для скачивания:Скачать

Расширения для Joomla