Технологии америки в пчеловодстве

Технологии америки в пчеловодстве

Промышленное пчеловодство в США. В данном видео показывается технологии используемые в Америке. Освещены такие темы как создание отводков, вывод пчелиных маток, роение пчелиной семьи, откачка мёда и искусственное осеменение пчелиных маток. Данный фильм без перевода на русский язык, но суть материала можно понять и без перевода, благо там не рассказывают теорию квантовой запутанности физики )))

 

 

Качество

General

Complete name                  :Технологии Америки (без перевода).avi

Format                         : AVI

Format/Info                    : Audio Video Interleave

File size                      : 389 MiB

Duration                       : 58mn 38s

Overall bit rate               : 928 Kbps

Writing application            : MEncoder dev-SVN-rUNKNOWN-3.4.5

Writing library                : MPlayer

 

Video

ID                             : 0

Format                         : MPEG-4 Visual

Format profile                 : Advanced Simple@L5

Format settings, BVOP          : Yes

Format settings, QPel          : No

Format settings, GMC           : No warppoints

Format settings, Matrix        : Default (H.263)

Codec ID                       : XVID

Codec ID/Hint                  : XviD

Duration                       : 58mn 38s

Bit rate                       : 800 Kbps

Width                          : 640 pixels

Height                         : 432 pixels

Display aspect ratio           : 3:2

Original display aspect ratio  : 3:2

Frame rate                     : 25.000 fps

Color space                    : YUV

Chroma subsampling             : 4:2:0

Bit depth                      : 8 bits

Scan type                      : Progressive

Compression mode               : Lossy

Bits/(Pixel*Frame)             : 0.116

Stream size                    : 335 MiB (86%)

Writing library                : XviD 1.2.0SMP (UTC 2006-01-08)

 

Audio

ID                             : 1

Format                         : MPEG Audio

Format version                 : Version 1

Format profile                 : Layer 3

Mode                           : Joint stereo

Mode extension                 : MS Stereo

Codec ID                       : 55

Codec ID/Hint                  : MP3

Duration                       : 58mn 38s

Bit rate mode                  : Constant

Bit rate                       : 32.0 Kbps

Channel(s)                     : 2 channels

Sampling rate                  : 44.1 KHz

Compression mode               : Lossy

Stream size                    : 48.5 MiB (12%)

Alignment                      : Aligned on interleaves

Interleave, duration           : 26 ms (0.65 video frame)

Interleave, preload duration   : 302 ms

Writing library                : LAME3.97 (beta)

 

Скришоты

Ссылка для скачивания: Скачать

Расширения для Joomla