Автоматический станок по распечатке медовых сот

Автоматический станок по распечатке медовых сот

Кабанов Петр делится опытом эксплуатации автоматического станка по распечатке медовых сот. В видеоматериале пойдет речь о плюсах и минусах станка. Одним словом маленький тест-драйв станка по распечатке сотов.

 

Качество видеофайла

General

Complete name                  :Станок для распечатки сотовых рамок с автоматической подачей2.mp4

Format                         : MPEG-4

Format profile                 : Base Media / Version 2

Codec ID                       : mp42

File size                      : 260 MiB

Duration                       : 18mn 21s

Overall bit rate mode          : Variable

Overall bit rate               : 1 977 Kbps

Encoded date                   : UTC 2014-11-09 15:11:45

Tagged date                    : UTC 2014-11-09 15:11:45

gsst                           : 0

gstd                           : 1101623

gssd                           : B0AFCE894MH1419241552480501

gshh                           : r16---sn-aigllne6.googlevideo.com

 

Video

ID                             : 1

Format                         : AVC

Format/Info                    : Advanced Video Codec

Format profile                 : High@L3.1

Format settings, CABAC         : Yes

Format settings, ReFrames      : 1 frame

Codec ID                       : avc1

Codec ID/Info                  : Advanced Video Coding

Duration                       : 18mn 21s

Bit rate                       : 1 783 Kbps

Maximum bit rate               : 4 963 Kbps

Width                          : 1 280 pixels

Height                         : 720 pixels

Display aspect ratio           : 16:9

Frame rate mode                : Constant

Frame rate                     : 25.000 fps

Color space                    : YUV

Chroma subsampling             : 4:2:0

Bit depth                      : 8 bits

Scan type                      : Progressive

Bits/(Pixel*Frame)             : 0.077

Stream size                    : 234 MiB (90%)

Tagged date                    : UTC 2014-11-09 15:12:14

 

Audio

ID                             : 2

Format                         : AAC

Format/Info                    : Advanced Audio Codec

Format profile                 : LC

Codec ID                       : 40

Duration                       : 18mn 21s

Bit rate mode                  : Variable

Bit rate                       : 192 Kbps

Maximum bit rate               : 202 Kbps

Channel(s)                     : 2 channels

Channel positions              : Front: L R

Sampling rate                  : 44.1 KHz

Compression mode               : Lossy

Stream size                    : 25.2 MiB (10%)

Title                          : IsoMedia File Produced by Google, 5-11-2011

Encoded date                   : UTC 2014-11-09 15:11:59

Tagged date                    : UTC 2014-11-09 15:12:14

 

Скриншоты

Ссылка для скачивания:Скачать

Расширения для Joomla